Русские трансы Жеская долбежка (Жескачи Group) [Транс порно]

Ответить на тему
 
Автор Сообщение

Эль ®

Стаж: 4 года 3 месяца

Сообщений: 23

Репутация:

Пост 19-Июн-2010 16:41

[Цитировать]

Русские трансы Жеская долбежка
Страна: Россия
Жанр: Транс порно
Продолжительность: 00:14:32
Перевод: Не требуется
Режиссер: Жескачи Group
В ролях: Девушка жертва
Транс долбер
Описание: Глуповатая но вставляющая постановка изнасилования трансом бедной девушки.

Доп. информация

General
Format : Flash Video
File size : 36.7 MiB
Duration : 14mn 32s
Overall bit rate : 353 Kbps
Writing application : Vk.com
Tagging application : Yet Another Metadata Injector for FLV - Version 1.4
Video
Format : H.263
Duration : 14mn 32s
Bit rate : 247 Kbps
Width : 320 pixels
Height : 240 pixels
Display aspect ratio : 4:3
Frame rate : 25.000 fps
Bits/(Pixel*Frame) : 0.129
Stream size : 26.6 MiB (72%)
Audio
Format : MPEG Audio
Format version : Version 2
Format profile : Layer 3
Mode : Joint stereo
Duration : 14mn 32s
Bit rate mode : Variable
Bit rate : 89.7 Kbps
Channel(s) : 2 channels
Sampling rate : 22.05 KHz
Bit depth : 16 bits
Stream size : 9.90 MiB (27%)
Видео: Flash Video 1 320x240
Аудио: MPEG Audio Layer 3 22050Hz stereo 8kbps

Скриншоты



[Профиль] [ЛС]

WERNN

Стаж: 3 года 11 месяцев

Сообщений: 156

Репутация:

Пост 25-Июн-2010 11:50 (спустя 5 дней)

[Цитировать]

это не транс! это баба с резиновым хреном! уберите в другой раздел! aq

_________________
ВОТ ТАК!
[Профиль] [ЛС]

fart2002

Стаж: 4 года 3 месяца

Сообщений: 8

Репутация:

Пост 20-Июл-2010 09:57 (спустя 24 дня)

[Цитировать]

это не транс! это баба с резиновым хреном! уберите в другой раздел! aq
это точно! Фигня полная, да и секса как такового нет
[Профиль] [ЛС]

bot

Стаж: 8 лет 10 месяцев

Сообщений: 1429

Репутация:

Пост 18-Янв-2011 06:57 (спустя 5 месяцев 28 дней)

[Цитировать]

Топик был перенесен из форума Транссексуалы и бисексуалы в форум Разное

antonio_don
[Профиль] [ЛС]

dsdtrrt

Стаж: 2 года 6 месяцев

Сообщений: 5

Репутация:

Пост 07-Окт-2011 06:52 (спустя 8 месяцев 19 дней)

[Цитировать]

А почему киргизам тяжело? ab
[Профиль] [ЛС]
Показать сообщения:    
Ответить на тему

Текущее время: Сегодня 16:30

Часовой пояс: GMT + 6



Вы не можете начинать темы
Вы не можете отвечать на сообщения
Вы не можете редактировать свои сообщения
Вы не можете удалять свои сообщения
Вы не можете голосовать в опросах
Вы не можете прикреплять файлы к сообщениям
Вы не можете скачивать файлы